Sammy's Adventures: 3D Passage The Secret (2010) 1080p BluRay FRE SBS Half-z-man



[V-Z]

Complete name : Sammys.Adventures.3D.3DBD.2010.FRE.1080p.half.SBS. z-man.mkv
Format : Matroska
File size : 6.30 GiB
Duration : 1h 25mn
Overall bit rate : 10.5 Mbps
Encoded date : UTC 2010-12-17 21:29:04
Writing application : mkvmerge v4.4.0 ('Die Wiederkehr') gebaut am Oct 31 2010 21:52:48
Writing library : libebml v1.0.0 + libmatroska v1.0.0

Video
ID : 1
Format : AVC
Format/Info : Advanced Video Codec
Format profile : High@L4.1
Format settings, CABAC : Yes
Format settings, ReFrames : 4 frames
Muxing mode : Container profile=Unknown@0.0
Codec ID : V_MPEG4/ISO/AVC
Duration : 1h 25mn
Bit rate : 8 827 Kbps
Width : 1 920 pixels
Height : 1 080 pixels
Display aspect ratio : 16:9
Frame rate : 23.976 fps
Color space : YUV
Chroma subsampling : 4:2:0
Bit depth : 8 bits
Scan type : Progressive
Bits/(Pixel*Frame) : 0.178
Stream size : 5.28 GiB (84%)
Title : made by z-man
Writing library : x264 core 112 r1834 a51816a
Encoding settings : cabac=1 / ref=4 / deblock=1:-1:-1 /
analyse=0x3:0x113 / me=umh / subme=9 / psy=1 / psy_rd=1.00:0.15 /
mixed_ref=1 / me_range=16 / chroma_me=1 / trellis=1 / 8x8dct=1 / cqm=0 /
deadzone=21,11 / fast_pskip=1 / chroma_qp_offset=-3 / threads=18 /
sliced_threads=0 / nr=0 / decimate=1 / interlaced=0 /
constrained_intra=0 / bframes=3 / b_pyramid=2 / b_adapt=1 / b_bias=0 /
direct=3 / weightb=1 / open_gop=0 / weightp=2 / keyint=250 /
keyint_min=23 / scenecut=40 / intra_refresh=0 / rc_lookahead=40 / rc=crf
/ mbtree=1 / crf=18.0 / qcomp=0.60 / qpmin=10 / qpmax=51 / qpstep=4 /
ip_ratio=1.40 / aq=1:1.00

Audio
ID : 2
Format : AC-3
Bit rate mode : Constant
Bit rate : 640 Kbps
Channel(s) : 2 channels
Language : English

Audio
ID : 3
Format : DTS
Format/Info : Digital Theater Systems
Codec ID : A_DTS
Duration : 1h 25mn
Bit rate mode : Constant
Bit rate : 1 510 Kbps
Channel(s) : 6 channels
Channel positions : Front: L C R, Side: L R, LFE
Sampling rate : 48.0 KHz
Bit depth : 24 bits
Compression mode : Lossy
Stream size : 924 MiB (14%)
Language : French



Download
1GB/link

megaupload.com EFOLZ9YG
megaupload.com VEG6PRUB
megaupload.com FV71QY1B
megaupload.com FFNFZNU5
megaupload.com LIC5OUJE
megaupload.com CY6RUZ74
megaupload.com PZZMXQC8
megaupload.com U1NEA5K0


200MB/Link

mediafire.com ?bad2qbd1e55da


Note: Các bạn down về Open with winrar, chọn extract to để giải nén bình thường. Không cần rename file đâu
MF chặn upload nên mình buộc phải rename như vậy mới upload đc! Enjoy
2 loại link sau mirror cho nhau


Hotfile
http://linkcrypt.ws/dir/1n45voz23044tm7


Password: hdmovie.vn

Vietsub: http://subscene.com/Sammys-Adventure...les-85336.aspx