Monsters Vs Aliens (2009)





IMDB: http://www.imdb.com/title/tt0892782/

Code:
Format : Matroska
File size : 5.34 GiB
Duration : 1h 34mn
Overall bit rate : 8 093 Kbps
Movie name : MONSTERS_VS_ALIENS_3D.Title1000.Bluray3DRip
Encoded date : UTC 2010-11-22 18:17:18
Writing application : DVDFab
Writing library : libebml v0.7.8 + libmatroska v0.8.1

Video
ID : 1
Format : AVC
Format/Info : Advanced Video Codec
Format profile : High@L5.1
Format settings, CABAC : Yes
Format settings, ReFrames : 1 frame
Codec ID : V_MPEG4/ISO/AVC
Duration : 1h 34mn
Bit rate mode : Variable
Bit rate : 7 292 Kbps
Maximum bit rate : 11.2 Mbps
Width : 1 920 pixels
Height : 1 080 pixels
Display aspect ratio : 16:9
Frame rate : 23.976 fps
Color space : YUV
Chroma subsampling : 4:2:0
Bit depth : 8 bits
Scan type : Progressive
Bits/(Pixel*Frame) : 0.147
Stream size : 4.81 GiB (90%)

Audio
ID : 2
Format : AC-3
Format/Info : Audio Coding 3
Mode extension : CM (complete main)
Codec ID : A_AC3
Duration : 1h 34mn
Bit rate mode : Constant
Bit rate : 640 Kbps
Channel(s) : 6 channels
Channel positions : Front: L C R, Side: L R, LFE
Sampling rate : 48.0 KHz
Bit depth : 16 bits
Compression mode : Lossy
Stream size : 433 MiB (8%)
Language : English

[V-Z]



[center]Một
tai nạn bất ngờ đã xảy ra ngay trong lễ cưới của Susan Murphy (Reese
Witherspoon lồng tiếng). Một thiên thạch rơi xuống Trái đất đã va vào cô
khiến cho cơ thể Susan bỗng phát triển thành một người khổng lồ cao tới
15m.

[center]

Quân đội ngay lập tức bắt giữ Susan và giam lỏng cô tại một trung tâm
nghiên cứu bí mật của chính phủ. Tại đây, Susan được đổi tên thành
Ginormica và gia nhập vào nhóm Quái vật đang được nghiên cứu.


Nhóm này gồm có Tiến sĩ Dr. Cockroach (Hugh Laurie) - vị giáo sư cực kì
thông minh trong hình dáng con người với cái đầu của một con gián;
Missing Link (Will Arnett) - quái vật lưỡng cư nửa khỉ nửa cá vô cùng
nhanh nhẹn; B.O.B. (Seth Rogen) - quái vật với hình thù mềm dẻo có khả
năng nuốt chửng kẻ thù, và cuối cùng là Insectosaurus - một ấu trùng
khổng lồ to hơn 100m có khả năng phóng tơ bằng mũi, nó thường gặm hay
phá nát bất cứ thứ gì có trên đường đi.


Cùng lúc đó, rô-bốt bí ẩn do Gallaxhar - kẻ mắc chứng hoang tưởng điều
động đáp xuống Trái đất. Con rô-bốt này mang âm mưu thôn tính thế giới
và đã ra tay bắn phá khắp nơi. Trong sự liều lĩnh tuyệt vọng, ngài Tổng
thống (Stephen Colbert) chỉ còn cách thuyết phục nhóm Quái vật gia nhập
quân đội để chống lại kẻ xâm lược ngoài hành tinh, cứu thế giới khỏi
thảm họa diệt vong...




[/center]






[/center]





mockingbirdreal@vn-zoom