The Final Destination (2009)





IMDB: http://www.imdb.com/title/tt1144884/

Code:
Format : AVI
Format/Info : Audio Video Interleave
File size : 701 MiB
Duration : 1h 21mn
Overall bit rate : 1 199 Kbps
Writing application : VirtualDubMod 1.5.10.2 (build 2540/release)
Writing library : VirtualDubMod build 2540/release

Video
ID : 0
Format : MPEG-4 Visual
Format profile : Advanced Simple@L5
Format settings, BVOP : Yes
Format settings, QPel : No
Format settings, GMC : No warppoints
Format settings, Matrix : Default (H.263)
Codec ID : XVID
Codec ID/Hint : XviD
Duration : 1h 21mn
Bit rate : 806 Kbps
Width : 640 pixels
Height : 272 pixels
Display aspect ratio : 2.35:1
Frame rate : 23.976 fps
Color space : YUV
Chroma subsampling : 4:2:0
Bit depth : 8 bits
Scan type : Progressive
Compression mode : Lossy
Bits/(Pixel*Frame) : 0.193
Stream size : 471 MiB (67%)
Writing library : XviD 1.2.1 (UTC 2008-12-04)

Audio
ID : 1
Format : AC-3
Format/Info : Audio Coding 3
Mode extension : CM (complete main)
Codec ID : 2000
Duration : 1h 21mn
Bit rate mode : Constant
Bit rate : 384 Kbps
Channel(s) : 6 channels
Channel positions : Front: L C R, Side: L R, LFE
Sampling rate : 48.0 KHz
Bit depth : 16 bits
Compression mode : Lossy
Stream size : 225 MiB (32%)
Alignment : Split accross interleaves
Interleave, duration : 42 ms (1.00 video frame)
Interleave, preload duration : 500 ms

[V-Z]



[center]Vào
một ngày lẽ ra sẽ rất hào hứng, trong khi xem đua xe tốc độ cao, Nick
O'Bannon bỗng nhận được một linh cảm chết chóc là toàn bộ các bạn của
anh và các khán giả gần đó sẽ chết một cách thảm khốc khi chiếc xe đua
gặp tai nạn và đâm vào khán đài chỗ anh ngồi gây ra một vụ nổ lớn. Một
vài người kể cả anh và các bạn sẽ chết.

[center]

Thức dậy sau cơn ác mộng, cảm thấy bất an, Nick hoảng sợ kêu gọi các bạn
anh quay về. Anh và các bạn thoát chết trong đường tơ kẽ tóc trước khi
cơn ác mộng trở thành sự thực đáng sợ.


Sau vụ tai nạn, họ ngỡ là mình đã lừa gạt được thần chết. Nhưng không
may cho Nick và Lori(bạn gái anh) đây chỉ mới là sự khởi đầu của "Danh
sách Thần Chết." Khi linh cảm của anh tiếp tục sau đó, những người bạn
của anh đều lần lượt chết trong những vụ tai nạn khác nhau một cách
khủng khiếp dưới sự sắp đặt của bàn tay thần chết.


Trước khi người cuối cùng trong nhóm bị giết chết, Nick phải tìm ra "Bản
thiết kế của Thần chết" để cứu các bạn anh và cứu cả chính anh. Bộ phim
là phần thứ 4 của loạt phim Final Destination, cũng là phần đầu tiên
được quay dưới dạng 3D




[/center]



[/center]





mockingbirdreal@vn-zoom