Haunted Castle (2001)





IMDB: http://www.imdb.com/title/tt0278475/

Code:
Format : Matroska
File size : 812 MiB
Duration : 38mn 14s
Overall bit rate : 2 967 Kbps
Encoded date : UTC 2011-02-11 18:08:23
Writing application : mkvmerge v4.4.0 ('Die Wiederkehr') built on Oct 31 2010 21:52:48
Writing library : libebml v1.0.0 + libmatroska v1.0.0

Video
ID : 2
Format : AVC
Format/Info : Advanced Video Codec
Format profile : High@L3.1
Format settings, CABAC : Yes
Format settings, ReFrames : 5 frames
Muxing mode : Header stripping
Codec ID : V_MPEG4/ISO/AVC
Duration : 38mn 14s
Bit rate : 2 716 Kbps
Width : 1 280 pixels
Height : 720 pixels
Display aspect ratio : 16:9
Frame rate : 29.970 fps
Color space : YUV
Chroma subsampling : 4:2:0
Bit depth : 8 bits
Scan type : Progressive
Bits/(Pixel*Frame) : 0.098
Stream size : 743 MiB (92%)
Language : English

Audio
ID : 1
Format : AC-3
Format/Info : Audio Coding 3
Mode extension : CM (complete main)
Muxing mode : Header stripping
Codec ID : A_AC3
Duration : 38mn 14s
Bit rate mode : Constant
Bit rate : 192 Kbps
Channel(s) : 2 channels
Channel positions : Front: L R
Sampling rate : 48.0 KHz
Bit depth : 16 bits
Compression mode : Lossy
Delay relative to video : 4ms
Stream size : 52.5 MiB (6%)

[V-Z]

[center][center]Haunted
Castle is a 2001 Belgian/American animated horror film in IMAX
theaters. The film is rated PG and is computer-animated with 3D effects.

Written by Kurt Frey and directed by co-writer Ben Stassen, the film
plays out very much like many modern video games, and can be divided
into two types of segments: those in which the audience is seeing
through the eyes of the main character, and those in which a scene plays
out where the main character is actually in the shot.




[/center]





[/center]





mockingbirdreal@vn-zoom