HÒA LẠC HÒA BÌNH-EXPRESSWAY
Chào mừng bạn đến với diễn đàn trang web Hòa Lạc - TP.Hòa Bình Expressway !


 
Trang ChínhTrợ giúpTìm kiếmNhómĐăng kýĐăng Nhập
Thiết kế name card, độc đáo kết hợp màu sắc ấn tượng
In card visit nhanh, in card visit rẻ đẹp, in card visit ở Hà Nội
Chuyên photo A4-A0, photocopy giá rẻ
In nhanh poster đẹp tại Hà Nội
Nơi in tờ rơi, tờ gấp màu nhanh nhất tại Hà Nội
in card công ty xây dựng Trần Đăng Ninh
In màu a4-a3, photo coppy, giá rẻ năm 2014 tại Trung Hòa
in màu a4-a3 laser siêu rẻ, siêu đẹp, đặc biệt giá cả rất hợp lý — Hà Nội
Làm kỷ yếu, in kỷ yếu số lượng ít đẹp và trang nhã, thiết kế chuyên nghiệp chất lượng cao tại Hà Nội
In kỷ yếu giá rẻ nhất Hà Nội
In kẹp file, kẹp tài liệu giá cả cạnh tranh
Đường cao tốc Chongzun
Autorun Virus Remover 3.1.0422 - Ngăn chặn mọi virus autorun từ USB
Microsoft Security Essentials 2.1.1116.0 Final - Trình diệt virus miễn phí từ Microsoft
5 Antivirus miễn phí tốt nhất của năm 2011
[Phần mềm + Hướng dẫn]Tích hợp Hiren's BootCD 14.1 Rebuild và mọi phiên bản vào menu boot vào Ổ Cứng (HDD) và RAM cho Windows 7 !!!
[Phần mềm + Hướng dẫn]Tích hợp Hiren's BootCD 14.1 Rebuild và mọi phiên bản vào menu boot vào Ổ Cứng (HDD) và RAM cho Windows 7 !!!
TuneUp Utilities 2010 9.0.2020.2 Final - Bộ công cụ tối ưu hàng đầu cho PC
Hot! Driver.Genius.Pro v10.0.0.761 Final _Crack No Virus ---Update driver mới nhất -» CHUẨN KO CẦN CHỈNH->NHANH TAY HỐT NÀO :D
Your Uninstaller! 7.4.2011.12 (Updated 08.11.2011) _ Gỡ phần mềm hàng đầu !!!
inmaugtvt
inmaugtvt
inmaugtvt
inmaugtvt
inmaugtvt
inmaugtvt
inmaugtvt
inmaugtvt
inmaugtvt
inmaugtvt
inmaugtvt
thienpht
jeegun
jeegun
jeegun
jeegun
jeegun
jeegun
jeegun
jeegun

Share | 
 

 [MUTI/Vietsub][Kinh dị | 18+]Piranha 3D (2010) 3D Blu-ray Disk 1080p Side by Side DTS x264 - z-man

Xem chủ đề cũ hơn Xem chủ đề mới hơn Go down 
Tác giảThông điệp
Admin
Admin
Admin
avatar

Tổng số bài gửi : 1754
Điểm : 6794
Ngày tham gia : 22/12/2010
Tuổi : 33
Đến từ : Hà Nội
Level: 33 Kinh nghiệm: 1754%
Sinh mệnh: 1754/100
Pháp lực: 33/100

NGƯỜI ĐIỀU HÀNH
Phù hiệu:

Bài gửiTiêu đề: [MUTI/Vietsub][Kinh dị | 18+]Piranha 3D (2010) 3D Blu-ray Disk 1080p Side by Side DTS x264 - z-man    Sat Mar 12, 2011 7:46 pm

Piranha 3D (2010) 3D Blu-ray Disk 1080p Side by Side DTS x264 - z-man
Cá Ăn Thịt Người

Xếp hạng: 6.3/10 - từ 14,477 người dùng



[V-Z]



IMDB:

Cá Hố Khổng Lồ - Mega Piranha 2010 2010

Đạo diễn: Eric Forsberg
Diễn viên: Tiffany, Paul Logan, Barry Williams, David Labiosa, Jude Gerard Prest, Jesse Daly
Thể loại: Hành Động,Kinh Dị,
Sản xuất: The Global Asylum
Quốc gia: Mỹ
Thời lượng: 90 Phút
Năm phát hành: 2010



General
Complete name : Piranha.SBS\Piranha.3D.2010.1080p___Mr.Tom___VNGOO .COM.mkv
Format : Matroska
File size : 9.10 GiB
Duration : 1h 28mn
Overall bit rate : 14.7 Mbps
Encoded date : UTC 2010-12-25 10:58:26
Writing application : mkvmerge v4.4.0 ('Die Wiederkehr') gebaut am Oct 31 2010 21:52:48
Writing library : libebml v1.0.0 + libmatroska v1.0.0

Video
ID : 1
Format : AVC
Format/Info : Advanced Video Codec
Format profile : High@L4.1
Format settings, CABAC : Yes
Format settings, ReFrames : 4 frames
Muxing mode : Container profile=Unknown@4.1
Codec ID : V_MPEG4/ISO/AVC
Duration : 1h 28mn
Bit rate : 12.9 Mbps
Width : 1 920 pixels
Height : 1 080 pixels
Display aspect ratio : 16:9
Frame rate : 23.976 fps
Color space : YUV
Chroma subsampling : 4:2:0
Bit depth : 8 bits
Scan type : Progressive
Bits/(Pixel*Frame) : 0.260
Stream size : 7.98 GiB (88%)
Title : made by z-man
Writing library : x264 core 112 r1834 a51816a
Encoding settings : cabac=1 / ref=4 / deblock=1:-1:-1 /
analyse=0x3:0x113 / me=umh / subme=7 / psy=1 / psy_rd=1.00:0.15 /
mixed_ref=1 / me_range=16 / chroma_me=1 / trellis=1 / 8x8dct=1 / cqm=0 /
deadzone=21,11 / fast_pskip=1 / chroma_qp_offset=-3 / threads=18 /
sliced_threads=0 / nr=0 / decimate=1 / interlaced=0 /
constrained_intra=0 / bframes=3 / b_pyramid=2 / b_adapt=1 / b_bias=0 /
direct=3 / weightb=1 / open_gop=0 / weightp=2 / keyint=250 /
keyint_min=23 / scenecut=40 / intra_refresh=0 / rc_lookahead=40 / rc=crf
/ mbtree=1 / crf=18.0 / qcomp=0.60 / qpmin=10 / qpmax=51 / qpstep=4 /
ip_ratio=1.40 / aq=1:1.00
Language : English

Audio
ID : 2
Format : DTS
Format/Info : Digital Theater Systems
Codec ID : A_DTS
Duration : 1h 28mn
Bit rate mode : Constant
Bit rate : 1 510 Kbps
Channel(s) : 6 channels
Channel positions : Front: L C R, Side: L R, LFE
Sampling rate : 48.0 KHz
Bit depth : 24 bits
Stream size : 954 MiB (10%)



Giới Thiệu:

Phim
lấy bối cảnh là ngày Quốc khánh Mỹ 4/7 tại một hồ nước xinh đẹp ở bang
Arizona. Một vụ địa chấn mạnh dưới lòng hồ đã giải phóng cho hàng triệu
con cá hổ hung dữ có tên gọi là Piranha. Với hàm răng sắc nhọn, chúng
tấn công và biến ngày nghỉ của nhiều thanh niên bên hồ thành một bữa
tiệc đẫm máu.
Piranha vốn là một bộ phim kinh dị loại B khá đình đám vào thập niên
1970, giờ đây được đạo diễn Alexandre Aja làm lại với công nghệ 3D.
Trong bài phỏng vấn gần đây trên kênh MTV, tác giả của loạt phim kinh dị
nổi tiếng The Hills Have Eyes tiết lộ rằng số máu giả mà ông sử dụng
cho Piranha 3D đã phá kỷ lục so với lượng máu dùng trong Kill Bill
(vol.1) của đạo diễn Quentin Tarantino. "Cuộc thảm sát của những chú cá
hổ kéo dài khoảng 25 phút sẽ thực sự gây sốc" - đạo diễn Alexandre Aje
cho biết.
Phim có sự tham gia của các diễn viên Jerry O'Connell, Elisabeth Shue,
ngôi sao trẻ của Gossip Girl - Jessica Szohr. Kelly Brook vào vai Danni
Arslow - một trong những "nạn nhân" của cá hổ Piranha. Người đẹp 31 tuổi
hứa hẹn sẽ "thiêu cháy" màn ảnh rộng mùa hè năm nay với bộ bikini màu
đỏ rực cùng những đường cong gợi cảm.
Piranha thực hiện ở môi trường 2D sau đó được chuyển sang định dạng 3D.
Phim ra mắt tại Mỹ từ ngày 20/8 và có thể sẽ được trình chiếu tại Việt
Nam vào mùa thu năm nay.











Download:


1GB/link
Về Đầu Trang Go down
http://duonghoalac-hoabinh.forumvi.com
Admin
Admin
Admin
avatar

Tổng số bài gửi : 1754
Điểm : 6794
Ngày tham gia : 22/12/2010
Tuổi : 33
Đến từ : Hà Nội
Level: 33 Kinh nghiệm: 1754%
Sinh mệnh: 1754/100
Pháp lực: 33/100

NGƯỜI ĐIỀU HÀNH
Phù hiệu:

Bài gửiTiêu đề: Re: [MUTI/Vietsub][Kinh dị | 18+]Piranha 3D (2010) 3D Blu-ray Disk 1080p Side by Side DTS x264 - z-man    Sat Mar 12, 2011 7:53 pm









+ Trả Lời Ðề Tài
kết quả từ 1 tới 10 trên 10




Đề tài: [MUTI/Vietsub][Kinh dị | 18+]Piranha 3D (2010) 3D Blu-ray Disk 1080p Side by Side DTS x264 - z-man







  1. 27-12-2010 16:10 #1
    G_D



[V-Z] Uploader Team

Tham giaJan 2010Đến từ->Đông Anh - HN1<-Bài1.744Cảm ơn2.278Điểm4.177/651 bài viết Thông tin game Tiền$223Yêu thíchTá lả (cấp 6)


[MUTI/Vietsub][Kinh dị | 18+]Piranha 3D (2010) 3D Blu-ray Disk 1080p Side by Side DTS x264 - z-man


Piranha 3D (2010) 3D Blu-ray Disk 1080p Side by Side DTS x264 - z-man
Cá Ăn Thịt Người

Xếp hạng: 6.3/10 - từ 14,477 người dùng



[V-Z]



IMDB: http://www.imdb.com/title/tt0464154/

Cá Hố Khổng Lồ - Mega Piranha 2010 2010

Đạo diễn: Eric Forsberg
Diễn viên: Tiffany, Paul Logan, Barry Williams, David Labiosa, Jude Gerard Prest, Jesse Daly
Thể loại: Hành Động,Kinh Dị,
Sản xuất: The Global Asylum
Quốc gia: Mỹ
Thời lượng: 90 Phút
Năm phát hành: 2010



General
Complete name : Piranha.SBSPiranha.3D.2010.1080p___Mr.Tom___VNGOO .COM.mkv
Format : Matroska
File size : 9.10 GiB
Duration : 1h 28mn
Overall bit rate : 14.7 Mbps
Encoded date : UTC 2010-12-25 10:58:26
Writing application : mkvmerge v4.4.0 ('Die Wiederkehr') gebaut am Oct 31 2010 21:52:48
Writing library : libebml v1.0.0 + libmatroska v1.0.0

Video
ID : 1
Format : AVC
Format/Info : Advanced Video Codec
Format profile : High@L4.1
Format settings, CABAC : Yes
Format settings, ReFrames : 4 frames
Muxing mode : Container profile=Unknown@4.1
Codec ID : V_MPEG4/ISO/AVC
Duration : 1h 28mn
Bit rate : 12.9 Mbps
Width : 1 920 pixels
Height : 1 080 pixels
Display aspect ratio : 16:9
Frame rate : 23.976 fps
Color space : YUV
Chroma subsampling : 4:2:0
Bit depth : 8 bits
Scan type : Progressive
Bits/(Pixel*Frame) : 0.260
Stream size : 7.98 GiB (88%)
Title : made by z-man
Writing library : x264 core 112 r1834 a51816a
Encoding settings : cabac=1 / ref=4 / deblock=1:-1:-1 /
analyse=0x3:0x113 / me=umh / subme=7 / psy=1 / psy_rd=1.00:0.15 /
mixed_ref=1 / me_range=16 / chroma_me=1 / trellis=1 / 8x8dct=1 / cqm=0 /
deadzone=21,11 / fast_pskip=1 / chroma_qp_offset=-3 / threads=18 /
sliced_threads=0 / nr=0 / decimate=1 / interlaced=0 /
constrained_intra=0 / bframes=3 / b_pyramid=2 / b_adapt=1 / b_bias=0 /
direct=3 / weightb=1 / open_gop=0 / weightp=2 / keyint=250 /
keyint_min=23 / scenecut=40 / intra_refresh=0 / rc_lookahead=40 / rc=crf
/ mbtree=1 / crf=18.0 / qcomp=0.60 / qpmin=10 / qpmax=51 / qpstep=4 /
ip_ratio=1.40 / aq=1:1.00
Language : English

Audio
ID : 2
Format : DTS
Format/Info : Digital Theater Systems
Codec ID : A_DTS
Duration : 1h 28mn
Bit rate mode : Constant
Bit rate : 1 510 Kbps
Channel(s) : 6 channels
Channel positions : Front: L C R, Side: L R, LFE
Sampling rate : 48.0 KHz
Bit depth : 24 bits
Stream size : 954 MiB (10%)



Giới Thiệu:

Phim
lấy bối cảnh là ngày Quốc khánh Mỹ 4/7 tại một hồ nước xinh đẹp ở bang
Arizona. Một vụ địa chấn mạnh dưới lòng hồ đã giải phóng cho hàng triệu
con cá hổ hung dữ có tên gọi là Piranha. Với hàm răng sắc nhọn, chúng
tấn công và biến ngày nghỉ của nhiều thanh niên bên hồ thành một bữa
tiệc đẫm máu.
Piranha vốn là một bộ phim kinh dị loại B khá đình đám vào thập niên
1970, giờ đây được đạo diễn Alexandre Aja làm lại với công nghệ 3D.
Trong bài phỏng vấn gần đây trên kênh MTV, tác giả của loạt phim kinh dị
nổi tiếng The Hills Have Eyes tiết lộ rằng số máu giả mà ông sử dụng
cho Piranha 3D đã phá kỷ lục so với lượng máu dùng trong Kill Bill
(vol.1) của đạo diễn Quentin Tarantino. "Cuộc thảm sát của những chú cá
hổ kéo dài khoảng 25 phút sẽ thực sự gây sốc" - đạo diễn Alexandre Aje
cho biết.
Phim có sự tham gia của các diễn viên Jerry O'Connell, Elisabeth Shue,
ngôi sao trẻ của Gossip Girl - Jessica Szohr. Kelly Brook vào vai Danni
Arslow - một trong những "nạn nhân" của cá hổ Piranha. Người đẹp 31 tuổi
hứa hẹn sẽ "thiêu cháy" màn ảnh rộng mùa hè năm nay với bộ bikini màu
đỏ rực cùng những đường cong gợi cảm.
Piranha thực hiện ở môi trường 2D sau đó được chuyển sang định dạng 3D.
Phim ra mắt tại Mỹ từ ngày 20/8 và có thể sẽ được trình chiếu tại Việt
Nam vào mùa thu năm nay.











Download:


1GB/link
megaupload.com RAEKZIX1
megaupload.com NLDHDXN0
megaupload.com N5QP5FMK
megaupload.com 3VBG8XY4
megaupload.com SVTRRWOS
megaupload.com 6I1CIN59
megaupload.com SOURQL48
megaupload.com 3PYGALM8
megaupload.com HFBWQJCB
megaupload.com BGU5YAKO



200MB/Link
mediafire.com ?krsfm1baiugtb


Note: Các bạn down về Open with winrar, chọn extract to để giải nén bình thường. Không cần rename file đâu
MF chặn upload nên mình buộc phải rename như vậy mới upload đc! Enjoy
2 loại link sau mirror cho nhau


Hotfile
http://linkcrypt.ws/dir/0h97577ytc0sf64


Password for MF/HF/MU: hdmovie.vn

http://mega.1280.com/folder/TC91A59Q1T/


Nguồn: hdvietnam.com

Vietsub: http://subscene.com/vietnamese/Piran...le-397022.aspx







Thay đổi nội dung bởi G_D; 27-12-2010 lúc 16:14.


Tổng hợp phim hay 2010-2011 - Bộ movie pack đồ sộ!!|Phim hoạt hình đoạt giải Oscar: Toy story 3 2010 480p rip by G_D Thuyết minh TV




Trả lời Trả Lời Với Trích Dẫn Cảm ơn












  • Có 5 thành viên cảm ơn G_D cho bài viết này:



    mockingbirdreal (31-12-2010), nicktoi2006 (17-02-2011), thithu (16-02-2011), titan! (28-12-2010), y0y0123456789 (05-02-2011)






  • #ads_zone411 .title { padding: 0px; }




  • 28-12-2010 23:03 #2
    kupi9x



    Gà Con

    Tham giaDec 2010Bài2Cảm ơn0Điểm0/0 bài viết




    K hiểu sao link MF tải về giải về báo lỗi link 17 và link 50
    Mất công tải ae help cái





    Trả lời Trả Lời Với Trích Dẫn Cảm ơn













  • 31-12-2010 15:49 #3
    love1676



    Gà Con

    Tham giaApr 2008Bài1Cảm ơn0Điểm0/0 bài viết

    hihihihi



    kiếm mai~





    Trả lời Trả Lời Với Trích Dẫn Cảm ơn













  • 09-01-2011 07:51 #4
    kute03



    Gà Con

    Tham giaJan 2009Bài3Cảm ơn0Điểm0/0 bài viết




    giúp tớ với !!! tớ tải về xong hết rồi mà giải nén nó không tự nối lại vs nhau.mà chỉ xem dc mỗi file đầu tiên thôi
    ngồi cả ngày down 10G mà lại k xem dc. giúp tớ với !!! hix hix





    Trả lời Trả Lời Với Trích Dẫn Cảm ơn













  • 20-01-2011 02:03 #5
    giggs201084



    Búa Gỗ

    Tham giaOct 2009Bài13Cảm ơn1Điểm0/0 bài viết

    bạn giúp mình nhé. sao tui down về rùi. mở phần mềm hisplit lên để join ma không thấy đâu vậy?



    bạn giúp mình nhé. sao tui down về rùi. mở phần mềm hisplit lên để join ma không thấy đâu vậy? HƯỚNG DẪN TUI NHÉ





    Trả lời Trả Lời Với Trích Dẫn Cảm ơn













  • 20-01-2011 02:05 #6
    boynamdinh89



    Rìu Bạc

    Tham giaMay 2009Đến từThành NamBài366Cảm ơn37Điểm177/51 bài viết Thông tin game Tiền$179Yêu thíchCờ Caro (cấp 3)





    vẫn chưa có phần 2 ah. phần một vẫn chưa kết thúc mà








    Trả lời Trả Lời Với Trích Dẫn Cảm ơn













  • 05-02-2011 12:39 #7
    y0y0123456789



    Rìu Bạc

    Tham giaMar 2010Đến từKhông có dữ liệuBài436Cảm ơn484Điểm173/62 bài viết Thông tin game Tiền$150Yêu thíchTiến lên MN (cấp 0)




    Dùng kính gì vậy anh?




    Antivirus giả mà đẹp quá xá, mai mốt chuyển qua đồ giả xài........................




    Trả lời Trả Lời Với Trích Dẫn Cảm ơn













  • 22-02-2011 21:07 #8
    h2hmobile



    Búa Gỗ

    Tham giaApr 2008Bài20Cảm ơn8Điểm0/0 bài viết




    chủ phim xem lại part 50 báo lỗi!thanks





    Trả lời Trả Lời Với Trích Dẫn Cảm ơn













  • 03-03-2011 20:52 #9
    hunter_bka



    Búa Gỗ Đôi

    Tham giaApr 2009Bài42Cảm ơn62Điểm7/4 bài viết Thông tin game Tiền$100Yêu thíchTiến lên MN (cấp 0)





    down về xem dc ko các bạn? cho ý kiến cái còn down vê, gần chục GB down về mà ko xem dc thì uổng lắm!





    Trả lời Trả Lời Với Trích Dẫn Cảm ơn













  • 08-03-2011 23:34 #10
    baamboohix



    Búa Gỗ

    Tham giaApr 2009Bài13Cảm ơn1Điểm4/3 bài viết




    49 50 bị lỗi rồi coi lại cái





    Thay đổi nội dung bởi baamboohix; 08-03-2011 lúc 23:50.





    Trả lời Trả Lời Với Trích Dẫn Cảm ơn















  • + Trả Lời Ðề Tài

    Thông báo từ Diễn Đàn




    Cancel Changes


    Errors

    Lỗi gặp phải khi gửi dữ liệu


    Okay


    Trả lời nhanh


































































    Bài viết đang được gửi đi, xin chờ trong giây lát...



    « [MF]Phim khoa học: Sea Monsters 3D 2007-Quái Vật Biển 1080p 1.09GB[SIDE BY SIDE](Hiệu ứng 3D rõ nét nhất)
    |
    [Multi,Thuyết Minh TV ] Shrek 4: Forever After - Cuộc Phiêu Lưu Cuối Cùng (2010) | 3D.2010..m720p.X264.half.SBS.MoCk »
    Tag của Đề tài này

    Thêm / Sửa Tag Không có gì
    Xem Tag Cloud


    Quyền sử dụng




    • Bạn có thể gửi chủ đề mới
    • Bạn có thể gửi trả lời
    • Bạn không thể gửi file đính kèm
    • Bạn có thể tự sửa bài viết của mình



    Quy định và Điều khoản [V-Z]






    Về Đầu Trang Go down
    http://duonghoalac-hoabinh.forumvi.com
     

    [MUTI/Vietsub][Kinh dị | 18+]Piranha 3D (2010) 3D Blu-ray Disk 1080p Side by Side DTS x264 - z-man

    Xem chủ đề cũ hơn Xem chủ đề mới hơn Về Đầu Trang 
    Trang 1 trong tổng số 1 trang

    Permissions in this forum:Bạn không có quyền trả lời bài viết
    HÒA LẠC HÒA BÌNH-EXPRESSWAY :: GIẢI TRÍ :: PHIM ẢNH-
    Chuyển đến